BLOOD European Tour 2012 | Stephen Colbert 2018.07.19 Denzel Washington | Microsoft Excel Microsoft OFFİCE Programları
[Login] or [Signup]
Login
Username:
Password:
[Signup]
[Recover Account]


Poll


You must be logged in to view polls



Torrent Details For "Soorma 2018 Hindi 720p PreDVD Rip x264 [MW]"

Soorma 2018 Hindi 720p PreDVD Rip x264 [MW]

Download this torrent | Magnet Download
Health:
Seeds: 963
Leechers: 32
Completed: 59,696 
Last Checked: 09-09-2018 08:09:19
External Torrent
Update Stats
Download Magnet


Poster


iMDB
Imdb Picture Title: Soorma
Year: 2018
Runtime: 131 minutes
Votes: 191
Rating: 7.7/10
Language: Hindi
Country: India
All Genres: Biography, Sport
Plot Outline: This is an inspiring true story of the triumph of the human spirit, about a player who faced a near death experience when he was at his peak but emerged victorious by his sheer determination, hard work and unrelenting passion for the sport. Sandeep Singh, a penalty corner specialist in the Indian Hockey team from Shahbad, Haryana made headlines when he was hit in the spine by an accidental gunshot while travelling on a train to join the national team that was to fly to Germany for the World Cup in 2006. The injury left him paralyzed, with the medical community giving him a slim chance of ever walking again. However, not only did Sandeep recover from it but he also made a comeback and re-established himself as the best drag-flicker, going on to captain the Indian national hockey team in January 2009.


Tagline: The Greatest Comeback Story of the Hockey Legend Sandeep Singh
Director: Shaad Ali
Writing By: Shaad Ali,Siva Ananth,Suyash Trivedi,
Produced By: Shaad Ali,Siva Ananth,Alek Conic,Kalpesh Damani,Kartik R. Iyer,Priyesh Kaushik,Pranjal Khandhdiya,Rohit Phale,Chitrangda Singh,Deepak Singh,
Cast:
Diljit Dosanjh as Sandeep Singh
Tapsee Pannu as Harpreet
Angad Bedi as Bikramjeet Singh
Danish Husain as Coach Kartar Singh
Pitobash as
Sidharth Shukla as Harpreet's Brother
Herry Tangiri as
Vijay Raaz as
Kulbhushan Kharbanda as
Seema Kaushal as
Trailers:
Soorma Trailer


Watch-Free-HD     Download

Details
Name:Soorma 2018 Hindi 720p PreDVD Rip x264 [MW]
Description:


 

General
Format                                   : Matroska
Format version                           : Version 4 / Version 2
File size                                : 1.07 GiB
Duration                                 : 1 h 54 min
Overall bit rate                         : 1 334 kb/s

Video
ID                                       : 1
Format                                   : AVC
Format/Info                              : Advanced Video Codec
Format profile                           : [email protected]
Format settings                          : CABAC / 4 Ref Frames
Format settings, CABAC                   : Yes
Format settings, RefFrames               : 4 frames
Codec ID                                 : V_MPEG4/ISO/AVC
Duration                                 : 1 h 54 min
Bit rate                                 : 1 200 kb/s
Width                                    : 1 280 pixels
Height                                   : 720 pixels
Display aspect ratio                     : 16:9
Frame rate mode                          : Constant
Frame rate                               : 25.000 FPS
Color space                              : YUV
Chroma subsampling                       : 4:2:0
Bit depth                                : 8 bits
Scan type                                : Progressive
Bits/(Pixel*Frame)                       : 0.052
Stream size                              : 989 MiB (90%)
Writing library                          : x264 core 155 r2901 7d0ff22
Default                                  : Yes
Forced                                   : No

Audio
ID                                       : 2
Format                                   : AAC
Format/Info                              : Advanced Audio Codec
Format profile                           : LC
Codec ID                                 : A_AAC-2
Duration                                 : 1 h 54 min
Bit rate                                 : 128 kb/s
Channel(s)                               : 2 channels
Channel positions                        : Front: L R
Sampling rate                            : 48.0 kHz
Frame rate                               : 46.875 FPS (1024 SPF)
Compression mode                         : Lossy
Stream size                              : 105 MiB (10%)
Language                                 : Hindi
Default                                  : Yes
Forced                                   : No


Click To Enlarge Image

 
 
 
 
 
 
 

Category:Movies > Bollywood
Lang:Hindi
Total Size:1.07 GB
Info Hash:e0168aaff7e9ec64e287fcf49ee9f65bda84323e
Added By:Freaky
Date Added:14-07-2018 13:49:34
Views:15,594
Hits:1,755

Download Torrent

Ratings:Not Yet Rated (Log in to rate it)


Tracker:
udp://tracker.coppersurfer.tk:6969/announce


File List: 


Comments

<< Previous      Next >>
1 - 1

[Report] Posted: 06-08-2018 at 15:23:25
hiddenhacker



Uploaded: 0.00 B
Downloaded: 0.00 B
Ratio: ---

O:-[quote][/quote]
  • [center][/center] [/url][img][/img][url]

  • 1 - 1
    << Previous      Next >>


    Powered by 10 Hamsters v2-svn -|- Page Generated In 0.911115 secs.
    -|- RSS FEED
    Theme By: Nikkbu