The Grand Tour (73) | Alpha (2018) English CAM-Rip | Thriller
[Login] or [Signup]
Login
Username:
Password:
[Signup]
[Recover Account]


Poll


You must be logged in to view polls



Torrent Details For "Happy Phirr Bhag Jayegi 2018 Hindi 720p PRE-DVDRip x264 AAC { TaRa }.mkv"

Happy Phirr Bhag Jayegi 2018 Hindi 720p PRE-DVDRip x264 AAC { TaRa }.mkv

Download this torrent | Magnet Download
Health:
Seeds: 321
Leechers: 63
Completed: 11,814 
Last Checked: 19-09-2018 17:17:41
External Torrent
Update Stats
Download Magnet


Poster


iMDB
Title: Happy Phirr Bhag Jayegi
Year: 2018
Runtime: 136 minutes
Language: Hindi
All Genres: Comedy
Director: Mudassar Aziz
Writing By: Mudassar Aziz,
Produced By: Manish Bhogte,Mohammad S. Hyderabadwala,Kanupriya,Hemal Kothari,Krishika Lulla,Sandeep Nair,Aanand L. Rai,Himanshu Sharma,
Music: Sohail Sen
Cast:
Jimmy Sheirgill as
Sonakshi Sinha as
Diana Penty as
Bijou Thaangjam as Chinese Agent
Jassi Gill as
Denzil Smith as Adnan Chow
Jason Tham as Chang
Trailers:
Happy Phirr Bhag Jayegi Trailer


Watch-Free-HD     Download

Details
Name:Happy Phirr Bhag Jayegi 2018 Hindi 720p PRE-DVDRip x264 AAC { TaRa }.mkv
Description:

Happy Phirr Bhag Jayegi 2018 Hindi 720p PRE-DVDRip x264 AAC { TaRa }.mkv
 

===================================================================
General
Complete name               : Happy Phirr Bhag Jayegi 2018 Hindi 720p PRE-DVDRip x264 AAC { TaRa }.mkv
Format                      : Matroska
Format version              : Version 4 / Version 2
File size                   : 1.11 GiB
Duration                    : 2h 10mn
Overall bit rate            : 1 221 Kbps
===================================================================
Video
ID                          : 1
Format                      : AVC
Format/Info                 : Advanced Video Codec
Format profile              : [email protected]
Format settings, CABAC      : Yes
Format settings, ReFrames   : 5 frames
Codec ID                    : V_MPEG4/ISO/AVC
Duration                    : 2h 10mn
Bit rate                    : 1 088 Kbps
Width                       : 1 280 pixels
Height                      : 544 pixels
Display aspect ratio        : 2.25:1
Original display aspect rat : 2.25:1
Frame rate mode             : Constant
Frame rate                  : 25.000 fps
Color space                 : YUV
Chroma subsampling          : 4:2:0
Bit depth                   : 8 bits
Scan type                   : Progressive
Bits/(Pixel*Frame)          : 0.063
Stream size                 : 1 020 MiB (89%)
Title                       : .....::::: TaRa :::::.....
Language                    : Hindi
Default                     : Yes
Forced                      : No
===================================================================
Audio
ID                          : 2
Format                      : AAC
Format/Info                 : Advanced Audio Codec
Format profile              : HE-AAC / LC
Codec ID                    : A_AAC
Duration                    : 2h 10mn
Bit rate                    : 128 Kbps
Channel(s)                  : 2 channels
Channel positions           : Front: L R
Sampling rate               : 44.1 KHz / 22.05 KHz
Frame rate                  : 21.533 fps (1024 spf)
Compression mode            : Lossy
Delay relative to video     : 33ms
Stream size                 : 120 MiB (10%)
Title                       : .....::::: TaRa :::::.....
Language                    : Hindi
Default                     : Yes
Forced                      : No
===================================================================


 
 
 
 
 
 
 
 
 
 
 
 
 
 
 
 












 



Category:Movies > Bollywood
Lang:Hindi
Total Size:1.11 GB
Info Hash:6450899f1bc0fd046a86bfc264f337c50ad76bc7
Added By:SkTaRa
Date Added:25-08-2018 04:34:49
Views:10,901
Hits:2,345

Download Torrent

Ratings:Not Yet Rated (Log in to rate it)


Tracker:
udp://tracker.coppersurfer.tk:6969/announce


File List: 


Comments

No comments still posted

Powered by 10 Hamsters v2-svn -|- Page Generated In 3.096250 secs.
-|- RSS FEED
Theme By: Nikkbu