Anne-Marie - 2002 Mp3 | Isanghago Aleumdaun | 23.09.1619:47 Uhr Sportfreunde Stiller - Das Geschenk Pop256 kbit/s 0 / 07.193 Hits VID P2P DDL 0 Kommentare
[Login] or [Signup]
Login
Username:
Password:
[Signup]
[Recover Account]


Poll


You must be logged in to view polls



Torrent Details For "VISION (2018) Hindi Dubbed Movie 720p - DTHRip[x264 - AC3(5.1Ch)]"

VISION (2018) Hindi Dubbed Movie 720p - DTHRip[x264 - AC3(5.1Ch)]

Download this torrent | Magnet Download
Health:
Seeds: 0
Leechers: 0
Completed:
Last Checked: 14-09-2018 15:42:16
External Torrent
Update Stats
Download Magnet


Poster


Watch-Free-HD     Download

Details
Name:VISION (2018) Hindi Dubbed Movie 720p - DTHRip[x264 - AC3(5.1Ch)]
Description:


[size="200"]VISION (2018) Hindi Dubbed Movie 720p - DTHRip[x264 - AC3(5.1Ch)][/size]




[code]
General
Complete name                            : VISION (2018) Hindi Dubbed Movie 720p - DTHRip[x264 - AC3(5.1Ch)].mp4
Format                                   : MPEG-4
Format profile                           : Base Media
Codec ID                                 : isom (isom/iso2/avc1/mp42)
File size                                : 707 MiB
Duration                                 : 2 h 19 min
Overall bit rate                         : 710 kb/s
Writing application                      : Lavf55.33.100
Video
ID                                       : 1
Format                                   : AVC
Format/Info                              : Advanced Video Codec
Format profile                           : [email protected]
Format settings                          : CABAC / 4 Ref Frames
Format settings, CABAC                   : Yes
Format settings, RefFrames               : 4 frames
Codec ID                                 : avc1
Codec ID/Info                            : Advanced Video Coding
Duration                                 : 2 h 19 min
Bit rate                                 : 512 kb/s
Width                                    : 848 pixels
Height                                   : 360 pixels
Display aspect ratio                     : 2.35:1
Frame rate mode                          : Constant
Frame rate                               : 25.000 FPS
Color space                              : YUV
Chroma subsampling                       : 4:2:0
Bit depth                                : 8 bits
Scan type                                : Progressive
Bits/(Pixel*Frame)                       : 0.067
Stream size                              : 509 MiB (72%)
Writing library                          : x264 core 132
Encoding settings                        : cabac=1 / ref=1 / deblock=1:0:0 / analyse=0x3:0x113 / me=hex / subme=2 / psy=1 / psy_rd=1.00:0.00 / mixed_ref=0 / me_range=16 / chroma_me=1 / trellis=1 / 8x8dct=1 / cqm=0 / deadzone=21,11 / fast_pskip=1 / chroma_qp_offset=0 / threads=4 / lookahead_threads=1 / sliced_threads=0 / nr=0 / decimate=1 / interlaced=0 / bluray_compat=0 / constrained_intra=0 / bframes=2 / b_pyramid=2 / b_adapt=1 / b_bias=0 / direct=1 / weightb=1 / open_gop=0 / weightp=1 / keyint=25 / keyint_min=13 / scenecut=40 / intra_refresh=0 / rc_lookahead=1 / rc=abr / mbtree=1 / bitrate=512 / ratetol=0.1 / qcomp=0.60 / qpmin=1 / qpmax=35 / qpstep=2 / ip_ratio=1.40 / aq=1:1.00
Audio
ID                                       : 2
Format                                   : AAC
Format/Info                              : Advanced Audio Codec
Format profile                           : LC
Codec ID                                 : mp4a-40-2
Duration                                 : 2 h 19 min
Bit rate mode                            : Constant
Bit rate                                 : 192 kb/s
Channel(s)                               : 2 channels
Channel positions                        : Front: L R
Sampling rate                            : 44.1 kHz
Frame rate                               : 43.066 FPS (1024 SPF)
Compression mode                         : Lossy
Stream size                              : 191 MiB (27%)
Default                                  : Yes
Alternate group                          : 1
[/code]















Category:Movies > Tamil
Lang:Hindi
Total Size:706.76 MB
Info Hash:402f567f3f09491cb2542b7bf7bdf608e97f10b4
Added By:nlpmovie
Date Added:14-09-2018 15:42:16
Views:422
Hits:19

Download Torrent

Ratings:Not Yet Rated (Log in to rate it)

  


Tracker:
udp://tracker.coppersurfer.tk:6969/announce


File List: 


Comments

No comments still posted

Powered by 10 Hamsters v2-svn -|- Page Generated In 0.783645 secs.
-|- RSS FEED
Theme By: Nikkbu