Shaka Zulu | Richard Armitage | Hello Baby Season 1
[Login] or [Signup]
Login
Username:
Password:
[Signup]
[Recover Account]


Poll


You must be logged in to view polls



Torrent Details For "Furlough 2018 1080p BluRay x264 DTS [MW]"

Furlough 2018 1080p BluRay x264 DTS [MW]

Download this torrent | Magnet Download
Health:
Seeds: 161
Leechers: 215
Completed: 178 
Last Checked: 14-09-2018 15:53:08
External Torrent
Update Stats
Download Magnet


Poster
No poster


Watch-Free-HD     Download

Details
Name:Furlough 2018 1080p BluRay x264 DTS [MW]
Description:

 


General
Format                                   : Matroska
Format version                           : Version 4 / Version 2
File size                                : 2.13 GiB
Duration                                 : 1 h 23 min
Overall bit rate                         : 3 662 kb/s

Video
ID                                       : 1
Format                                   : AVC
Format/Info                              : Advanced Video Codec
Format profile                           : [email protected]
Format settings                          : CABAC / 4 Ref Frames
Format settings, CABAC                   : Yes
Format settings, RefFrames               : 4 frames
Codec ID                                 : V_MPEG4/ISO/AVC
Duration                                 : 1 h 23 min
Bit rate                                 : 3 000 kb/s
Width                                    : 1 920 pixels
Height                                   : 800 pixels
Display aspect ratio                     : 2.40:1
Frame rate mode                          : Constant
Frame rate                               : 23.976 (24000/1001) FPS
Color space                              : YUV
Chroma subsampling                       : 4:2:0
Bit depth                                : 8 bits
Scan type                                : Progressive
Bits/(Pixel*Frame)                       : 0.081
Stream size                              : 1.69 GiB (79%)
Writing library                          : x264 core 155 r2901 7d0ff22
Default                                  : Yes
Forced                                   : No

Audio
ID                                       : 2
Format                                   : DTS
Format/Info                              : Digital Theater Systems
Codec ID                                 : A_DTS
Duration                                 : 1 h 23 min
Bit rate mode                            : Constant
Bit rate                                 : 756 kb/s
Channel(s)                               : 6 channels
Channel positions                        : Front: L C R, Side: L R, LFE
Sampling rate                            : 48.0 kHz
Frame rate                               : 93.750 FPS (512 SPF)
Bit depth                                : 16 bits
Compression mode                         : Lossy
Stream size                              : 451 MiB (21%)
Language                                 : English
Default                                  : Yes
Forced                                   : No

Text
ID                                       : 3
Format                                   : VobSub
Muxing mode                              : zlib
Codec ID                                 : S_VOBSUB
Codec ID/Info                            : Picture based subtitle format used on DVDs
Duration                                 : 1 h 22 min
Bit rate                                 : 5 873 b/s
Count of elements                        : 1498
Stream size                              : 3.45 MiB (0%)
Language                                 : English
Default                                  : Yes
Forced                                   : No

Menu
00:00:00.000                             : en:00:00:00.000
00:08:37.600                             : en:00:08:37.600
00:17:15.034                             : en:00:17:15.034
00:22:03.531                             : en:00:22:03.531
00:24:20.834                             : en:00:24:20.834
00:30:01.383                             : en:00:30:01.383
00:31:43.819                             : en:00:31:43.819
00:41:49.340                             : en:00:41:49.340
00:48:35.246                             : en:00:48:35.246
00:51:38.721                             : en:00:51:38.721
00:58:25.794                             : en:00:58:25.794
01:13:32.825                             : en:01:13:32.825


 http://pichub.site/image/EIWCZ
 http://pichub.site/image/EIbrg
 http://pichub.site/image/EIeWI
 http://pichub.site/image/EIq7X
 http://pichub.site/image/EO4N8
 http://pichub.site/image/EOf1J

Category:Movies > 1080P Bluray
Lang:English  English
Total Size:2.13 GB
Info Hash:82aa17407b5d40604b5311b9ecf2f9f7a09d5f3f
Added By:Freaky
Date Added:14-09-2018 15:53:00
Views:97
Hits:3

Download Torrent

Ratings:Not Yet Rated (Log in to rate it)


Tracker:
udp://tracker.coppersurfer.tk:6969/announce


File List: 


Comments

No comments still posted

Powered by 10 Hamsters v2-svn -|- Page Generated In 0.525650 secs.
-|- RSS FEED
Theme By: Nikkbu